#TITLE:Shinjun no Zankoku;
#SUBTITLE:- Venus Versus Virus Ending;
#ARTIST:Yousei Teikoku;
#TITLETRANSLIT:;
#SUBTITLETRANSLIT:;
#ARTISTTRANSLIT:;
#CREDIT:Tweety;
#BANNER:venused-logo.jpg;
#BACKGROUND:venused-bg.jpg;
#LYRICSPATH:trance.lrc;
#CDTITLE:cdtitle02.png;
#MUSIC:shinjun no zankoku (tv size).mp3;
#OFFSET:1.560;
#SAMPLESTART:38.440;
#SAMPLELENGTH:12.000;
#SELECTABLE:YES;
#BPMS:0.000=150.000;
#STOPS:;
#BGCHANGES:3.500=venusED.avi=1.000=1=0=1,
222.000=venused-bg.jpg=1.000=0=0=1,
99999=-nosongbg-=1.000=0=0=0 // don't automatically add -songbackground-
;
// cache tags:
#FIRSTBEAT:4.000;
#LASTBEAT:222.000;
#SONGFILENAME:songs/Otaku's Dream 3rd Anime Mix/[Tweety3187] Shinjun no Zankoku - Venus Versus Virus ED/trance.sm;
#HASMUSIC:1;
#HASBANNER:1;
#MUSICLENGTH:89.952;
// end cache tags

//---------------dance-single - ----------------
#NOTES:
     dance-single:
     :
     Hard:
     8:
     0.797,0.948,1.000,0.600,0.022,300.000,148.000,54.000,0.000,1.000:
0000
0000
0000
0000
,
1100
1100
0011
1000
,
1000
0100
0100
0100
0002
0023
0032
0023
,
1230
1300
0011
0100
,
0000
0100
1010
0100
0011
0010
0000
1001
,
2001
3001
0110
0010
,
0000
1000
0110
1000
0101
0001
0000
0110
,
0210
0310
1001
0100
,
0000
0001
1010
0100
0011
0001
0000
0110
,
2010
3010
0101
0010
,
2001
0100
0010
0001
0100
0001
0100
3000
,
0110
0000
0011
0000
0101
0000
1100
2010
,
0001
3000
0010
0000
0101
0000
0010
0000
,
1100
0000
0110
0000
1001
0000
0011
0012
,
1000
0103
1010
0001
,
1001
0000
0110
0000
1100
0000
0110
0210
,
0001
0300
0001
0000
1010
0000
0100
0000
,
0011
0000
0011
0000
1100
0000
1100
2100
,
0001
0000
0010
0000
0001
0000
3010
0000
0002
0000
0000
0000
0023
0000
0000
0030
,
1002
0000
0000
0000
0100
0003
0000
0210
,
0001
0300
0020
0000
2030
0000
3010
0102
,
1000
0000
0000
0000
1003
0000
0110
0210
,
0001
0300
0001
0000
1010
0000
0010
0000
,
0120
0000
0000
0000
0001
0030
0000
1002
,
0010
0003
2000
0000
3200
0000
1300
0021
,
0100
0000
0000
0000
0130
0000
1001
1002
,
0010
0103
0010
1000
0010
0101
0101
0010
,
1001
0001
0110
0000
,
1001
0100
0100
0011
0010
1000
0101
0000
,
0101
0000
0000
0110
1000
0000
0011
0000
,
0012
0000
1000
0000
1000
0000
0100
0000
0010
0000
0103
0000
1000
0100
0010
0001
,
1100
1100
1100
0012
1000
0013
0110
0001
,
1010
1010
0101
0201
0001
0310
1010
0001
,
0110
1010
0011
0201
1000
0310
1100
0010
,
0101
0000
0101
0000
0011
0000
0012
0000
1000
0000
0100
0000
1000
0100
1003
0100
,
1010
0110
1100
0021
0100
0031
1100
0010
,
1001
1001
0110
0210
0001
0310
1001
0010
,
1100
1100
0101
2010
0100
3001
0110
1000
,
0101
0000
0000
0000
0110
0000
0000
0000
0011
0000
0000
0000
0012
0000
0000
0000
1000
0000
0000
0000
0203
0000
0000
0000
0320
0000
0000
0000
0230
0000
0000
0300
,
2001
0001
0001
3001
,
0101
0000
0010
0000
0202
0000
0000
0303
2020
0000
0000
3030
0110
0000
0210
0000
,
0001
0001
0001
0301
,
1001
0000
0000
0000
0202
0000
0000
0303
0022
0000
0000
0033
1010
0000
0102
0000
,
0100
0000
0100
0000
0103
0000
0010
0100
,
1001
0000
0110
0110
0001
0000
0010
0100
,
1100
0000
1001
0011
0100
0000
1010
0110
,
0011
0000
1010
1010
0001
0000
1010
0000
,
0102
0000
0100
0000
1000
1000
0103
0000
,
1010
0000
0011
0100
1001
0010
0000
1001
,
1002
0103
1010
0001
,
0000
0100
1010
0001
1100
0001
0000
1010
,
2010
3010
0101
0010
,
0000
1000
0011
0100
0101
0010
0000
0011
,
0012
1003
0101
0001
,
0000
0100
1010
0001
0110
0001
0000
1001
,
1001
0000
0000
0000
;

//---------------dance-single - ----------------
#NOTES:
     dance-single:
     :
     Medium:
     5:
     0.300,0.401,0.434,0.167,0.000,135.000,39.000,15.000,0.000,0.000:
0000
0000
0000
0000
,
2000
0000
0000
0000
,
0000
0000
3000
0000
,
0001
0000
0001
0000
,
0001
0000
0001
0000
,
1000
0000
1000
0000
,
1000
0000
1000
0000
,
0010
0000
0010
0000
,
0010
0000
0010
0000
,
0100
0000
0100
0000
,
0100
0000
0100
0000
,
1001
0010
0001
0010
,
0001
0000
1000
0000
,
0010
0100
0010
0100
,
0010
0000
1000
0000
,
0001
0100
0001
0100
,
0001
0000
0010
0000
,
1000
0010
1000
0010
,
1000
0000
0100
0000
,
1001
0000
0110
0000
,
1001
0000
0011
0000
,
1100
0000
1010
0000
,
0101
0000
0110
0000
,
1001
0000
0110
0000
,
0011
0000
0101
0000
,
1010
0000
0110
0000
,
2002
0000
0000
3003
,
0102
0000
0100
0000
,
0100
0000
0103
0000
,
2010
0000
0010
0000
,
0010
0000
3010
0000
,
0001
0100
0001
0010
,
0001
1000
0010
0100
,
0010
0001
1000
0010
,
1000
1000
1000
1000
,
0010
0100
1000
0010
,
0100
0010
0100
0001
,
1000
0010
0100
0010
,
0001
0001
0001
0001
,
1002
0000
1000
0000
,
1000
0000
1000
0003
,
0210
0000
0010
0000
,
0010
0000
0010
0300
,
2100
0000
0001
3000
,
1001
0000
0110
0000
,
0011
0000
1001
0000
,
0102
0100
0010
0103
,
2010
0010
3010
0000
,
1001
0000
0110
0000
,
0012
0010
0013
0000
,
1010
0000
1100
0000
,
0120
0100
0130
0000
,
1100
0000
0011
0000
,
1002
1000
1003
0000
,
0110
0000
1001
0000
,
2002
0000
3003
0000
;

//---------------dance-single - Copied from----------------
#NOTES:
     dance-single:
     Copied from:
     Easy:
     3:
     0.238,0.308,0.289,0.167,0.000,109.000,26.000,15.000,0.000,0.000:
0000
0000
0000
0000
,
0002
0000
0000
0000
,
0000
0000
0003
0000
,
1000
0000
1000
0000
,
1000
0000
1000
0000
,
0001
0000
0001
0000
,
0001
0000
0001
0000
,
0100
0000
0100
0000
,
0100
0000
0100
0000
,
0010
0000
0010
0000
,
0010
0000
0010
0000
,
1001
0100
1000
0000
,
1000
0000
0001
0000
,
0100
0010
0100
0000
,
0100
0000
0001
0000
,
1000
0010
1000
0000
,
1000
0000
0100
0000
,
0001
0100
0001
0000
,
0001
0000
0010
0000
,
1001
0000
0010
0000
,
1001
0000
0100
0000
,
0011
0000
0100
0000
,
1010
0000
0010
0000
,
1001
0000
0100
0000
,
1100
0000
0010
0000
,
0101
0000
0100
0000
,
2002
0000
0000
3003
,
2010
0000
0010
0000
,
0010
0000
3010
0000
,
0102
0000
0100
0000
,
0100
0000
0103
0000
,
1000
0000
1000
0000
,
1000
0000
0100
0000
,
0100
0000
0001
0000
,
0001
0000
0001
0000
,
0100
0000
0001
0000
,
0010
0000
0010
0000
,
0001
0000
0010
0000
,
1000
0000
1000
0000
,
2001
0000
0001
0000
,
0001
0000
0001
3000
,
0120
0000
0100
0000
,
0100
0000
0100
0030
,
0012
0000
1000
0003
,
1001
0000
0010
0000
,
1100
0000
0001
0000
,
2010
0000
0100
3000
,
0102
0000
0103
0000
,
1001
0000
0010
0000
,
2100
0000
3100
0000
,
0101
0000
0010
0000
,
0210
0000
0310
0000
,
0011
0000
0100
0000
,
2001
0000
3001
0000
,
0110
0000
1000
0000
,
2002
0000
3003
0000
;

//---------------dance-single - Copied from Copied f----------------
#NOTES:
     dance-single:
     Copied from Copied f:
     Beginner:
     2:
     0.175,0.216,0.022,0.167,0.000,93.000,2.000,15.000,0.000,0.000:
0000
0000
0000
0000
,
0002
0000
0000
0000
,
0000
0000
0003
0000
,
1000
0000
0000
0000
,
1000
0000
0000
0000
,
0001
0000
0000
0000
,
0001
0000
0000
0000
,
0100
0000
0000
0000
,
0100
0000
0000
0000
,
0010
0000
0000
0000
,
0010
0000
0000
0000
,
0001
0000
1000
0000
,
1000
0000
0001
0000
,
0100
0000
0100
0000
,
0100
0000
0001
0000
,
1000
0000
1000
0000
,
1000
0000
0100
0000
,
0001
0000
0001
0000
,
0001
0000
0010
0000
,
1000
0000
0010
0000
,
0001
0000
0100
0000
,
0010
0000
0100
0000
,
1000
0000
0010
0000
,
0001
0000
0100
0000
,
1000
0000
0010
0000
,
0100
0000
0100
0000
,
2002
0000
0000
3003
,
2000
0000
0010
0000
,
0010
0000
3010
0000
,
0002
0000
0100
0000
,
0100
0000
0103
0000
,
1000
0000
1000
0000
,
1000
0000
0000
0000
,
0100
0000
0001
0000
,
0001
0000
0000
0000
,
0100
0000
0001
0000
,
0010
0000
0000
0000
,
0001
0000
0010
0000
,
1000
0000
0000
0000
,
2000
0000
0001
0000
,
0001
0000
0001
3000
,
0020
0000
0100
0000
,
0100
0000
0100
0030
,
0002
0000
1000
0003
,
0001
0000
0010
0000
,
0100
0000
0001
0000
,
2000
0000
0010
3000
,
0002
0000
0103
0000
,
0001
0000
0010
0000
,
2000
0000
3100
0000
,
0100
0000
0010
0000
,
0200
0000
0310
0000
,
0001
0000
0100
0000
,
2000
0000
3001
0000
,
0100
0000
1000
0000
,
2002
0000
3003
0000
;
